TV / Kryminalny
Lucifer S03E16 - Infernal Guinea Pig [720p.AMZN.WEBRip.x264.DD5.1] [Napisy PL]


Dodał: Lukarusi
Data dodania:
2018-03-12 12:56:05
Rozmiar: 1.58 GB
Ostat. aktualizacja:
2018-04-15 01:27:55
Seedów: 31
Peerów: 30


Komentarze: 2

Info:

produkcja: USA
gatunek: Kryminał, Fantasy
reżyseria: Len Wiseman, Nathan Hope, Tim Matheson
scenariusz: Tom Kapinos
muzyka: Marco Beltrami, Dennis Smith
zdjęcia: Glen Keenan
czas trwania: ok. 44 min.

Opis:

Nieszczęśliwy i znudzony swoim bytem Lucifer Morningstar porzuca funkcję Władcy Piekieł i udaje się do Los Angeles, gdzie zostaje właścicielem luksusowego klubu nocnego.

Obsada:

Tom Ellis - Lucifer Morningstar
Rachael Harris - Dr Linda Martin
Lesley-Ann Brandt - Mazikeen "Maze"
Lauren German - Chloe Dancer
Nicholas Gonzalez - Dan
D.B. Woodside - Amenadiel
Scarlett Estevez - Trixie

Dane techniczne:

Format : Matroska
Format version : Version 4 / Version 2
File size : 1.57 GiB
Duration : 43 min 50 s
Overall bit rate : 5 144 kb/s
Encoded date : UTC 2018-03-12 11:15:50

Video
ID : 1
Format : AVC
Format/Info : Advanced Video Codec
Format profile : High@L4.1
Format settings, CABAC : Yes
Format settings, RefFrames : 9 frames
Codec ID : V_MPEG4/ISO/AVC
Duration : 43 min 50 s
Bit rate : 4 758 kb/s
Width : 1 280 pixels
Height : 720 pixels
Display aspect ratio : 16:9
Frame rate mode : Constant
Frame rate : 23.976 (24000/1001) FPS
Color space : YUV
Chroma subsampling : 4:2:0
Bit depth : 8 bits
Scan type : Progressive
Bits/(Pixel*Frame) : 0.215
Stream size : 1.46 GiB (92%)
Writing library : x264 core 148

Audio
ID : 2
Format : AC-3
Format/Info : Audio Coding 3
Format settings, Endianness : Big
Codec ID : A_AC3
Duration : 43 min 50 s
Bit rate mode : Constant
Bit rate : 384 kb/s
Channel(s) : 6 channels
Channel positions : Front: L C R, Side: L R, LFE
Sampling rate : 48.0 kHz
Frame rate : 31.250 FPS (1536 SPF)
Bit depth : 16 bits
Compression mode : Lossy
Stream size : 120 MiB (7%)
Language : English
Service kind : Complete Main

Text
ID : 3
Format : UTF-8
Codec ID : S_TEXT/UTF8
Codec ID/Info : UTF-8 Plain Text
Duration : 43 min 3 s
Bit rate : 86 b/s
Count of elements : 861
Stream size : 27.3 KiB (0%)
Language : Polish

Lista plików Show/Hide [Pokaż/Ukryj]
Trackery
  • http://agusiq-torrents.pl:6969/announce
  • http://tracker.vanitycore.co:6969/announce
  • udp://shadowshq.eddie4.nl:6969/announce
  • udp://tracker.leechers-paradise.org:6969/announce
  • udp://eddie4.nl:6969/announce
  • udp://9.rarbg.me:2730/announce
  • udp://9.rarbg.com:2740/announce
  • http://tracker.torrentyorg.pl/announce
  • udp://poloniumsurfer.tk:6969/announce
  • udp://torrent.gresille.org:80/announce
  • http://tracker.filetracker.pl:8089/announce
  • udp://tracker.pomf.se:80/announce
  • udp://10.rarbg.com/announce
  • udp://tracker.openbittorrent.com:80/announce
  • udp://sugoi.pomf.se:80/announce
  • udp://tracker.glotorrents.com:6969/announce
  • http://mgtracker.org:2710/announce
  • udp://tracker.istole.it:80/announce
  • udp://tracker.prq.to/announce
  • udp://tracker.torrentbay.to:6969/announce
  • udp://exodus.desync.com:6969/announce
  • udp://tracker.publicbt.com/announce
  • udp://t1.pow7.com/announce
  • http://retracker.omsk.ru:2710/announce
  • http://tracker.tfile.me/announce

<< Poprzednia      Następna >>
1 - 2

Dodał: DZIDEK22 Data: 2018-03-13 20:14:24

A KIEDY BEDZIE Z LEKTOREM BO OSTANI OCINEK BYL 14 W LUTYM Z LEKTOREM

Dodał: Lukarusi Data: 2018-03-13 20:22:21

Odcinek 15: http://exi-torrentyorgs.pl/torrent/88850

1 - 2
<< Poprzednia      Następna >>

Żaden z plików nie znajduje się na serwerze. Torrenty są własnością użytkowników. Administrator serwisu nie może ponieść konsekwencji za to co użytkownicy wstawiają, lub za to co czynią na stronie. Nie możesz używać tego serwisu do rozpowszechniania lub ściągania materiałów do których nie masz odpowiednich praw lub licencji. Użytkownicy odpowiedzialni są za przestrzeganie tych zasad.
Copyright © 2016 Ex-torrentyorgs.com.pl

Najlepsze strony Torrentowe