TV / Kryminalny
Narcos (2015) Sezon 1 Cały Sezon (2017) [720p] [BRRip] [XviD] [AC3] [Lektor PL]


Dodał: djatwork1990
Data dodania:
2018-03-13 21:35:38
Rozmiar: 8.72 GB
Ostat. aktualizacja:
2018-06-11 11:14:14
Seedów: 0
Peerów: 7


Komentarze: 1

..::INFO::..
twórcy:........ Carlo Bernard, Doug Miro
gatunek:....... Biograficzny, Dramat, Kryminał
nagrody:....... 10 nominacji
muzyka:.........Pedro Bromfman,
Rodrigo Amarante (oryginalny temat przewodni)
zdjęcia:........Luis David Sansans
Mauricio Vidal
na podstawie:...Steve Lightfoot (materiały do scenariusza, historia)
Gideon Yago (materiały do scenariusza, historia)
studio:.........Dynamo Gaumont International Television
kraje:..........USA, Kolumbia


..::OPIS::..

Pablo Escobar (Wagner Moura) jest potężnym bossem kartelu narkotykowego z Medelin w Kolumbii. Jego działalność związana z handlem kokainą rozrasta się. Władze federalne USA stawiają sobie za cel zlikwidować nielegalną działalność Escobara.

..::OBSADA::..

Wagner Moura........... Pablo Escobar
Boyd Holbrook.......... Steve Murphy
Pedro Pascal............Javier Peña
Stephanie Sigman........Valeria Vélez
Joanna Christie.........Connie Murphy
Maurice Compte..........Horacio Carrillo
Ana de la Reguera.......Elisa, komunistka
..::DANE-TECH::..
General

Complete name: Lektor PL 720p 720p -.mp4
Format : Xvid
Format profile : Base Media
Codec ID : isom (isom/iso2/avc1/mp41)
File size : 854 MiB
Duration : 44 min 55 s
Overall bit rate mode : Variable
Overall bit rate : 2 658 kb/s
Writing application : Lavf56.31.102

Video
ID : 1
Format : AVC
Format/Info : Advanced Video Codec
Format profile : Baseline@L3.1
Format settings : 2 Ref Frames
Format settings, CABAC : No
Format settings, ReFrames : 2 frames
Codec ID : avc1
Codec ID/Info : Advanced Video Coding
Duration : 44 min 55 s
Bit rate : 2 500 kb/s
Width : 1 280 pixels
Height : 720 pixels
Display aspect ratio : 16:9
Frame rate mode : Constant
Frame rate : 23.976 (23976/1000) FPS
Color space : YUV
Chroma subsampling : 4:2:0
Bit depth : 8 bits
Scan type : Progressive
Bits/(Pixel*Frame) : 0.113
Stream size : 801 MiB (94%)
Writing library : x264 core 142
Encoding settings : cabac=0 / ref=2 / deblock=1:0:0 / analyse=0x1:0x111 / me=hex / subme=6 / psy=1 / psy_rd=1.00:0.00 / mixed_ref=1 / me_range=16 / chroma_me=1 / trellis=1 / 8x8dct=0 / cqm=0 / deadzone=21,11 / fast_pskip=1 / chroma_qp_offset=-2 / threads=12 / lookahead_threads=2 / sliced_threads=0 / nr=0 / decimate=1 / interlaced=0 / bluray_compat=0 / constrained_intra=0 / bframes=0 / weightp=0 / keyint=50 / keyint_min=26 / scenecut=0 / intra_refresh=0 / rc_lookahead=30 / rc=cbr / mbtree=1 / bitrate=2500 / ratetol=1.0 / qcomp=0.60 / qpmin=0 / qpmax=69 / qpstep=4 / vbv_maxrate=2500 / vbv_bufsize=5000 / nal_hrd=none / filler=0 / ip_ratio=1.40 / aq=1:1.00

Audio
ID : 2
Format : AAC
Format/Info : Advanced Audio Codec
Format profile : LC
Codec ID : mp4a-40-2
Duration : 44 min 55 s
Duration_LastFrame : -23 ms
Bit rate mode : Variable
Bit rate : 160 kb/s
Maximum bit rate : 2 500 kb/s
Channel(s) : 2 channels
Channel positions : Front: L R
Sampling rate : 44.1 kHz
Frame rate : 43.066 FPS (1024 SPF)
Compression mode : Lossy
Stream size : 51.4 MiB (6%)
Default : Yes
Alternate group : 1

Lista plików Show/Hide [Pokaż/Ukryj]
Trackery
  • udp://exodus.desync.com:6969
  • udp://exodus.desync.com:6969/announce
  • udp://9.rarbg.com:2710/announce
  • udp://ipv4.tracker.harry.lu:80/announce
  • udp://tracker.istole.it:80/announce
  • udp://10.rarbg.com/announce
  • udp://castradio.net:6969/announce
  • http://announce.torrentsmd.com:6969/announce
  • udp://tracker.token.ro:80/announce
  • http://tracker.nwps.ws:6969/announce
  • http://94.228.192.98/announce
  • udp://tracker.publicbt.com:80/announce
  • udp://open.demonii.com:1337
  • udp://11.rarbg.com:80/announce
  • http://tracker.ex.ua/announce
  • http://www.tlv.cc:7777/announce
  • udp://tracker.openbittorrent.com:80/announce

<< Poprzednia      Następna >>
1 - 1

Dodał: Putin123 Data: 2018-03-27 19:36:40

mozna seda z gory thx

1 - 1
<< Poprzednia      Następna >>

Żaden z plików nie znajduje się na serwerze. Torrenty są własnością użytkowników. Administrator serwisu nie może ponieść konsekwencji za to co użytkownicy wstawiają, lub za to co czynią na stronie. Nie możesz używać tego serwisu do rozpowszechniania lub ściągania materiałów do których nie masz odpowiednich praw lub licencji. Użytkownicy odpowiedzialni są za przestrzeganie tych zasad.
Copyright © 2016 Ex-torrentyorgs.com.pl

Najlepsze strony Torrentowe