TV / Dokumentalny
Hitler's Circle of Evil - Sezon 1 [1080p.NF.WEB-DL.H.264.AAC2.0] [Lektor PL]


Dodał: Lukarusi
Data dodania:
2018-03-13 20:00:38
Rozmiar: 28.82 GB
Ostat. aktualizacja:
2018-03-24 15:13:14
Seedów: 67
Peerów: 194


Komentarze: 0

Info:

produkcja: UK
gatunek: Dokument
twórca: Matthew Hinchcliffe, Simon Deeley, Vicky Matthews, Guy Smith, Ashley Morris, Chris Roberts
zdjęcia: Adrian Musto, Sashi Kissoon
czas trwania: ok. 52 min.

Opis:

Pośród spisków, zdrad i sporów o władzę grono najbliższych Hitlerowi nazistowskich przywódców przejmuje władzę w III Rzeszy i planuje tragiczną przyszłość kraju.

Obsada:

Alisdair Simpson
Henrik Jørgensen
James Lowe
Blake Scott
Peter Turnbull
Jonathon Michaels
Steve Munroe
Conan Sweeny
Chris Wilson
Liam Shipton
Mairead Armstrong
Heather Cairns
Daniel Chapple
Alex Dee
Ty Hurley

Dane techniczne:

Format : Matroska
Format version : Version 4 / Version 2
File size : 3.25 GiB
Duration : 51 min 57 s
Overall bit rate : 8 957 kb/s
Encoded date : UTC 2018-03-13 18:18:28

Video
ID : 1
Format : AVC
Format/Info : Advanced Video Codec
Format profile : Main@L4
Format settings, CABAC : Yes
Format settings, RefFrames : 2 frames
Format settings, GOP : M=1, N=13
Codec ID : V_MPEG4/ISO/AVC
Duration : 51 min 57 s
Bit rate : 8 858 kb/s
Width : 1 920 pixels
Height : 1 080 pixels
Display aspect ratio : 16:9
Frame rate mode : Constant
Frame rate : 25.000 FPS
Color space : YUV
Chroma subsampling : 4:2:0
Bit depth : 8 bits
Scan type : Progressive
Bits/(Pixel*Frame) : 0.171
Stream size : 3.21 GiB (99%)

Audio
ID : 2
Format : AAC
Format/Info : Advanced Audio Codec
Format profile : HE-AAC / LC
Codec ID : A_AAC
Duration : 51 min 57 s
Bit rate : 96.0 kb/s
Channel(s) : 2 channels
Channel positions : Front: L R
Sampling rate : 48.0 kHz / 24.0 kHz
Frame rate : 23.438 FPS (1024 SPF)
Compression mode : Lossy
Stream size : 35.7 MiB (1%)
Language : Polish

Lista plików Show/Hide [Pokaż/Ukryj]
Trackery
  • udp://9.rarbg.com:2740/announce
  • http://tracker.vanitycore.co:6969/announce
  • udp://shadowshq.eddie4.nl:6969/announce
  • udp://eddie4.nl:6969/announce
  • udp://tracker.leechers-paradise.org:6969/announce
  • http://tracker.torrentyorg.pl/announce
  • udp://9.rarbg.me:2730/announce
  • http://agusiq-torrents.pl:6969/announce
  • udp://torrent.gresille.org:80/announce
  • http://tracker.filetracker.pl:8089/announce
  • udp://poloniumsurfer.tk:6969/announce
  • udp://tracker.pomf.se:80/announce
  • udp://10.rarbg.com/announce
  • udp://tracker.openbittorrent.com:80/announce
  • udp://sugoi.pomf.se:80/announce
  • udp://tracker.glotorrents.com:6969/announce
  • http://mgtracker.org:2710/announce
  • udp://exodus.desync.com:6969/announce
  • udp://tracker.istole.it:80/announce
  • udp://tracker.prq.to/announce
  • udp://t1.pow7.com/announce
  • udp://tracker.publicbt.com/announce
  • udp://tracker.torrentbay.to:6969/announce
  • http://retracker.omsk.ru:2710/announce
  • http://tracker.tfile.me/announce

Brak komentarzy!

Żaden z plików nie znajduje się na serwerze. Torrenty są własnością użytkowników. Administrator serwisu nie może ponieść konsekwencji za to co użytkownicy wstawiają, lub za to co czynią na stronie. Nie możesz używać tego serwisu do rozpowszechniania lub ściągania materiałów do których nie masz odpowiednich praw lub licencji. Użytkownicy odpowiedzialni są za przestrzeganie tych zasad.
Copyright © 2016 Ex-torrentyorgs.com.pl

Najlepsze strony Torrentowe