TV / Kryminalny
Fargo - Sezon 1 [1080p.WEB-DL.H.264.AC3] [Lektor PL]


Dodał: Lukarusi
Data dodania:
2018-05-13 12:14:01
Rozmiar: 20.07 GB
Ostat. aktualizacja:
2018-05-13 15:20:49
Seedów: 6
Peerów: 404


Komentarze: 2

Info:

produkcja: USA
gatunek: Kryminał, Thriller, Dramat
reżyseria: Adam Bernstein, Colin Bucksey
scenariusz: Noah Hawley
zdjęcia: Dana Gonzales, Matthew J. Lloyd
muzyka: Jeff Russo
czas trwania: ok. 48-70 min.

Opis:

Rok 2006, Minnesota. Do prowincjonalnego Bemidji przybywa tajemniczy mężczyzna, Lorne Malvo. Swoją brutalnością i bezwzględnością wpływa na mieszkańców miasta, w tym na udręczonego przez życie sprzedawcę ubezpieczeń, Lestera Nygaarda.

Obsada:

Billy Bob Thornton - Lorne Malvo
Martin Freeman - Lester Nygaard
Colin Hanks - Gus Grimly
Kate Walsh - Gina Hess
Oliver Platt - Stavros Milos
Joey King - Greta Grimly
Joshua Close - Ron Nygaard
Bob Odenkirk - Bill Olson

Dane techniczne:

Format : Matroska
Format version : Version 4 / Version 2
File size : 2.50 GiB
Duration : 1 h 9 min
Overall bit rate mode : Constant
Overall bit rate : 5 123 kb/s
Encoded date : UTC 2018-05-13 08:24:15

Video
ID : 1
Format : AVC
Format/Info : Advanced Video Codec
Format profile : High@L4
Format settings : CABAC / 4 Ref Frames
Format settings, CABAC : Yes
Format settings, ReFrames : 4 frames
Codec ID : V_MPEG4/ISO/AVC
Duration : 1 h 9 min
Bit rate mode : Constant
Bit rate : 4 737 kb/s
Nominal bit rate : 5 045 kb/s
Width : 1 920 pixels
Height : 1 080 pixels
Display aspect ratio : 16:9
Frame rate mode : Constant
Frame rate : 23.976 (23976/1000) FPS
Original frame rate : 23.976 (24000/1001) FPS
Color space : YUV
Chroma subsampling : 4:2:0
Bit depth : 8 bits
Scan type : Progressive
Bits/(Pixel*Frame) : 0.095
Stream size : 2.31 GiB (92%)
Color range : Limited
Color primaries : BT.709
Transfer characteristics : BT.709
Matrix coefficients : BT.709

Audio
ID : 2
Format : AC-3
Format/Info : Audio Coding 3
Codec ID : A_AC3
Duration : 1 h 9 min
Bit rate mode : Constant
Bit rate : 384 kb/s
Channel(s) : 2 channels
Channel positions : Front: L R
Sampling rate : 48.0 kHz
Frame rate : 31.250 FPS (1536 SPF)
Bit depth : 16 bits
Compression mode : Lossy
Stream size : 192 MiB (7%)
Language : Polish
Service kind : Complete Main

Lista plików Show/Hide [Pokaż/Ukryj]
Trackery
  • udp://tracker.leechers-paradise.org:6969/announce
  • udp://shadowshq.eddie4.nl:6969/announce
  • udp://eddie4.nl:6969/announce
  • udp://9.rarbg.com:2800/announce
  • udp://9.rarbg.me:2740/announce
  • http://tracker.vanitycore.co:6969/announce
  • http://tracker.torrentyorg.pl/announce
  • udp://torrent.gresille.org:80/announce
  • http://tracker.filetracker.pl:8089/announce
  • udp://tracker.glotorrents.com:6969/announce
  • udp://poloniumsurfer.tk:6969/announce
  • udp://10.rarbg.com/announce
  • udp://tracker.openbittorrent.com:80/announce
  • udp://sugoi.pomf.se:80/announce
  • udp://tracker.pomf.se:80/announce
  • http://tracker.tfile.me/announce
  • http://agusiq-torrents.pl:6969/announce
  • udp://tracker.prq.to/announce
  • udp://tracker.torrentbay.to:6969/announce
  • udp://t1.pow7.com/announce
  • udp://tracker.istole.it:80/announce
  • udp://exodus.desync.com:6969/announce
  • udp://tracker.publicbt.com/announce
  • http://retracker.omsk.ru:2710/announce
  • http://mgtracker.org:2710/announce

<< Poprzednia      Następna >>
1 - 2

Dodał: robertk1973 Data: 2018-05-14 18:00:23

dzięki za wstawkę,mi osobiście najlepszy sezon Fargo

Dodał: substral3333 Data: 2018-05-22 04:19:53

B.B.T pokazuje najwyższy kunszt aktorski.....WIELKI SZACUN

1 - 2
<< Poprzednia      Następna >>

Żaden z plików nie znajduje się na serwerze. Torrenty są własnością użytkowników. Administrator serwisu nie może ponieść konsekwencji za to co użytkownicy wstawiają, lub za to co czynią na stronie. Nie możesz używać tego serwisu do rozpowszechniania lub ściągania materiałów do których nie masz odpowiednich praw lub licencji. Użytkownicy odpowiedzialni są za przestrzeganie tych zasad.
Copyright © 2016 Ex-torrentyorgs.com.pl

Najlepsze strony Torrentowe