HD / Thriller
Odwet/Revenge (2017)[WEBRip 1080p x264 by alE13 AC3][Napisy PL/Eng][Fre]


Dodał: alE13
Data dodania:
2018-05-22 05:50:33
Rozmiar: 7.77 GB
Ostat. aktualizacja:
2018-06-05 20:04:02
Seedów: 4
Peerów: 31


Komentarze: 2

http://i.imgur.com/nHuimKW.jpg

https://www.imdb.com/title/tt6738136/
http://www.filmweb.pl/film/Revenge-2017-807467

Plik zawiera Sample.

reżyseria: Coralie Fargeat
scenariusz: Coralie Fargeat
gatunek: Thriller
produkcja: Francja
premiera: 10-09-2017
muzyka: Robin Coudert
zdjęcia: Robrecht Heyvaert
czas: 1h 48min

opis:

Never take your mistress on an annual guys' getaway, especially one devoted to hunting
- a violent lesson for three wealthy married men.

Nigdy nie bierz swojej kochanki na coroczne polowanie z kumplami, bo można dostać straszną
lekcję.

https://i.imgur.com/iGMY7s1.jpg
https://i.imgur.com/aK2VZ3V.jpg
https://i.imgur.com/4uGtOEp.jpg
https://i.imgur.com/DBUPdDl.jpg

obsada:

Matilda Anna Ingrid Lutz, Kevin Janssens, Vincent Colombe

dane techniczne:

Revenge (2017)-alE13.mkv
Format : Matroska
Format version : Version 4 / Version 2
File size : 7.72 GiB
Duration : 1 h 48 min
Overall bit rate : 10.2 Mb/s
Movie name : Revenge (2017)-alE13
Encoded date : UTC 2018-05-22 03:03:27
Writing application : mkvmerge v8.1.0 ('Psychedelic Postcard') 64bit
Writing library : libebml v1.3.1 + libmatroska v1.4.2
Cover : Yes
Attachments : Cover.jpg

Video
ID : 1
Format : AVC
Format/Info : Advanced Video Codec
Format profile : High@L4.1
Format settings : CABAC / 2 Ref Frames
Format settings, CABAC : Yes
Format settings, ReFrames : 2 frames
Codec ID : V_MPEG4/ISO/AVC
Duration : 1 h 48 min
Bit rate : 9 539 kb/s
Width : 1 920 pixels
Height : 800 pixels
Display aspect ratio : 2.40:1
Frame rate mode : Constant
Frame rate : 23.976 (24000/1001) FPS
Color space : YUV
Chroma subsampling : 4:2:0
Bit depth : 8 bits
Scan type : Progressive
Bits/(Pixel*Frame) : 0.259
Stream size : 7.23 GiB (94%)
Title : Revenge (2017)-alE13
Writing library : x264 core 142
Default : Yes
Forced : No
Color range : Limited
Color primaries : BT.709
Transfer characteristics : BT.709
Matrix coefficients : BT.709

Audio
ID : 2
Format : AC-3
Format/Info : Audio Coding 3
Codec ID : A_AC3
Duration : 1 h 48 min
Bit rate mode : Constant
Bit rate : 640 kb/s
Channel(s) : 6 channels
Channel positions : Front: L C R, Side: L R, LFE
Sampling rate : 48.0 kHz
Frame rate : 31.250 FPS (1536 SPF)
Bit depth : 16 bits
Compression mode : Lossy
Stream size : 497 MiB (6%)
Title : Revenge (2017)-alE13_AC3
Language : English
Service kind : Complete Main
Default : No
Forced : No

Text #1
ID : 3
Format : UTF-8
Codec ID : S_TEXT/UTF8
Codec ID/Info : UTF-8 Plain Text
Duration : 1 h 43 min
Bit rate : 13 b/s
Count of elements : 350
Stream size : 10.4 KiB (0%)
Title : Revenge (2017)-alE13
Language : Polish
Default : Yes
Forced : No

Text #2
ID : 4
Format : UTF-8
Codec ID : S_TEXT/UTF8
Codec ID/Info : UTF-8 Plain Text
Duration : 1 h 40 min
Bit rate : 8 b/s
Count of elements : 212
Stream size : 6.63 KiB (0%)
Title : Revenge (2017)-alE13
Language : English
Default : No
Forced : No

Lista plików Show/Hide [Pokaż/Ukryj]
Trackery
  • udp://tracker.coppersurfer.tk:6969/announce
  • udp://inferno.demonoid.pw:3391/announce
  • udp://tracker.leechers-paradise.org:6969/announce
  • udp://tracker.opentrackr.org:1337/announce
  • http://tracker.torrentyorg.pl/announce
  • udp://p4p.arenabg.ch:1337/announce
  • udp://tracker.ilibr.org:80/announce
  • http://tracker.devil-torrents.pl/announce

<< Poprzednia      Następna >>
1 - 2

Dodał: 676kowal Data: 2018-05-22 23:35:47

dodasz proszę Prawdziwe zbrodnie / True Crimes

Dodał: onek8484 Data: 2018-05-23 02:00:10

Ten film mnie rozj...ł ( TOTALNIE !!! ) =D morze krwi to pikuś przy tym filmie i jeszcze ta muza.... =D masakra następnym razem jak coś wstawiacie to podpiszcie że to film rangi ( ASYLUM )

1 - 2
<< Poprzednia      Następna >>

Żaden z plików nie znajduje się na serwerze. Torrenty są własnością użytkowników. Administrator serwisu nie może ponieść konsekwencji za to co użytkownicy wstawiają, lub za to co czynią na stronie. Nie możesz używać tego serwisu do rozpowszechniania lub ściągania materiałów do których nie masz odpowiednich praw lub licencji. Użytkownicy odpowiedzialni są za przestrzeganie tych zasad.
Copyright © 2016 Ex-torrentyorgs.com.pl

Najlepsze strony Torrentowe